+ gaishuan.top »  :::: Bollywood Zone » Regional Movies » Bengali Movies
|- Shotru (2011) Bengali Movie - HDTVRip [x264 - AAC3(5.1Ch)] - 851 MB


Amazon Pantry Offer

Shotru (2011) Bengali Movie - HDTVRip [x264 - AAC3(5.1Ch)] - 851 MB

0 Members and 1 Guest are viewing this topic.

October 11, 2018, 07:08:36 PM
  • Semi Newbie
  • **
  • Topic Author
  • Thank You: 0
  • Reputation: -1
  • Activity:
    5.4%
  • Country: bd
  • Posts: 27
  • Topics: 27
  • Join Date: Oct 2018
  • ShareSpark Member
      Shotru (2011) Bengali Movie - HDTVRip
[x264 - AAC3(5.1Ch)] - 851 MB 
 







Code: [Select]
General
Format                                   : MPEG-4
Format profile                           : Base Media
Codec ID                                 : isom (isom)
File size                                : 851 MiB
Duration                                 : 3 h 0 min

Video
ID                                       : 1
Format                                   : AVC
Format/Info                              : Advanced Video Codec
Format profile                           : [email protected]
Format settings                          : CABAC / 4 Ref Frames
Format settings, CABAC                   : Yes
Format settings, RefFrames               : 4 frames
Codec ID                                 : avc1
Codec ID/Info                            : Advanced Video Coding
Duration                                 : 3 h 0 min
Bit rate                                 : 529 kb/s
Maximum bit rate                         : 2 106 kb/s
Width                                    : 640 pixels
Height                                   : 272 pixels
Display aspect ratio                     : 2.35:1
Frame rate mode                          : Constant
Frame rate                               : 25.000 FPS
Color space                              : YUV
Chroma subsampling                       : 4:2:0
Bit depth                                : 8 bits
Scan type                                : Progressive
Bits/(Pixel*Frame)                       : 0.122
Stream size                              : 682 MiB (80%)

Audio
ID                                       : 2
Format                                   : AAC LC SBR
Commercial name                          : HE-AAC
Format settings                          : Explicit
Codec ID                                 : mp4a-40-2
Duration                                 : 3 h 0 min
Bit rate mode                            : Variable
Bit rate                                 : 128 kb/s
Maximum bit rate                         : 138 kb/s
Channel(s)                               : 6 channels
Channel layout                           : C L R Ls Rs LFE
Sampling rate                            : 48.0 kHz
Stream size                              : 165 MiB (19%)


  Thumbnail   






OR

OR

Share this topic on FacebookShare this topic on GoogleShare this topic on MySpaceShare this topic on TwitterShare this topic on Yahoo




Tags:
 

Related Topics

  Subject / Started by Replies Last post
0 Replies
123 Views
Last post October 08, 2018, 02:25:58 PM
by BUNGILI
0 Replies
133 Views
Last post October 08, 2018, 03:04:21 PM
by BUNGILI
0 Replies
67 Views
Last post October 09, 2018, 12:51:54 PM
by BUNGILI
0 Replies
13 Views
Last post 8 hours ago
by BUNGILI
0 Replies
29 Views
Last post 8 hours ago
by BUNGILI




Back to top
Sitemap