+ gaishuan.top »  :::: Bollywood Zone » Regional Movies » Bengali Movies
|- Shubho Sharadiya (2018) - Zee Bangla Cinema - DTH Rip[Mp4 - AAC3(2Ch)] - 450 MB


Mastercard 10% Off

Shubho Sharadiya (2018) - Zee Bangla Cinema - DTH Rip[Mp4 - AAC3(2Ch)] - 450 MB

0 Members and 1 Guest are viewing this topic.

October 20, 2018, 06:21:26 PM
  • Semi Newbie
  • **
  • Topic Author
  • Thank You: 0
  • Reputation: -1
  • Activity:
    6.6%
  • Country: bd
  • Posts: 33
  • Topics: 33
  • Join Date: Oct 2018
  • ShareSpark Member
      Shubho Sharadiya (2018) - Zee Bangla Cinema -
 DTH Rip[Mp4 - AAC3(2Ch)]  - 450 MB   
 






Code: [Select]
General
Format                                   : MPEG-4
Format profile                           : Base Media
Codec ID                                 : isom (isom)
File size                                : 451 MiB
Duration                                 : 2 h 15 min

Video
ID                                       : 1
Format                                   : AVC
Format/Info                              : Advanced Video Codec
Format profile                           : [email protected]
Format settings                          : CABAC / 4 Ref Frames
Format settings, CABAC                   : Yes
Format settings, RefFrames               : 4 frames
Codec ID                                 : avc1
Codec ID/Info                            : Advanced Video Coding
Duration                                 : 2 h 15 min
Bit rate                                 : 383 kb/s
Maximum bit rate                         : 1 833 kb/s
Width                                    : 560 pixels
Height                                   : 280 pixels
Display aspect ratio                     : 2.000
Frame rate mode                          : Constant
Frame rate                               : 25.000 FPS
Color space                              : YUV
Chroma subsampling                       : 4:2:0
Bit depth                                : 8 bits
Scan type                                : Progressive
Bits/(Pixel*Frame)                       : 0.098
Stream size                              : 370 MiB (82%)

Audio
ID                                       : 2
Format                                   : AAC LC SBR
Commercial name                          : HE-AAC
Format settings                          : Explicit
Codec ID                                 : mp4a-40-2
Duration                                 : 2 h 15 min
Bit rate mode                            : Variable
Bit rate                                 : 79.8 kb/s
Maximum bit rate                         : 88.5 kb/s
Channel(s)                               : 6 channels
Channel layout                           : C L R Ls Rs LFE
Sampling rate                            : 48.0 kHz
Stream size                              : 77.2 MiB (17%)


  Thumbnail   






OR

OR

Share this topic on FacebookShare this topic on GoogleShare this topic on MySpaceShare this topic on TwitterShare this topic on Yahoo




Tags:
 

Related Topics

  Subject / Started by Replies Last post
0 Replies
925 Views
Last post April 13, 2018, 09:47:57 AM
by UnikAaYush
0 Replies
294 Views
Last post October 11, 2018, 10:08:06 AM
by BUNGILI
0 Replies
113 Views
Last post October 12, 2018, 10:58:37 AM
by BUNGILI
0 Replies
27 Views
Last post 18 hours ago
by BUNGILI
0 Replies
33 Views
Last post 18 hours ago
by BUNGILI




Back to top
Sitemap