+ gaishuan.top »  :::: Bollywood Zone » Regional Movies » Bengali Movies
|- Cockpit (2017) - Bengali Movie - 1CD - HDTV Rip[x264 - AAC3(5.1Ch)]


10% SBI and 10% Discount

Cockpit (2017) - Bengali Movie - 1CD - HDTV Rip[x264 - AAC3(5.1Ch)]

0 Members and 1 Guest are viewing this topic.

January 22, 2018, 12:02:04 PM
  • Semi Newbie
  • **
  • Topic Author
  • Thank You: 3
  • Reputation: 1
  • Activity:
    0%
  • Country: bd
  • Posts: 8
  • Topics: 8
  • Join Date: Dec 2017
  • ShareSpark Member
  Cockpit (2017) - Bengali Movie - 1CD -
 HDTV Rip[x264 - AAC3(5.1Ch)]   






Code: [Select]
General
Format                                   : Matroska
Format version                           : Version 2
File size                                : 699 MiB
Duration                                 : 2 h 45 min

Video
ID                                       : 1
Format                                   : AVC
Format/Info                              : Advanced Video Codec
Format profile                           : [email protected]
Format settings                          : CABAC / 4 Ref Frames
Format settings, CABAC                   : Yes
Format settings, RefFrames               : 4 frames
Codec ID                                 : V_MPEG4/ISO/AVC
Duration                                 : 2 h 45 min
Bit rate                                 : 509 kb/s
Width                                    : 720 pixels
Height                                   : 304 pixels
Display aspect ratio                     : 2.35:1
Frame rate mode                          : Constant
Frame rate                               : 25.000 FPS
Color space                              : YUV
Chroma subsampling                       : 4:2:0
Bit depth                                : 8 bits
Scan type                                : Progressive
Bits/(Pixel*Frame)                       : 0.093
Stream size                              : 602 MiB (86%)

Audio
ID                                       : 2
Format                                   : AAC
Format/Info                              : Advanced Audio Codec
Format profile                           : HE-AACv2 / HE-AAC / LC
Format settings                          : NBC
Codec ID                                 : A_AAC-2
Duration                                 : 2 h 45 min
Bit rate                                 : 79.8 kb/s
Channel(s)                               : 6 channels
Channel positions                        : Front: L R / , Side: C / , Side: C
Stream size                              : 94.4 MiB (14%)

[video=http://www.youtube.com/watch?v=N_WVnutAftY]

Thumbnail









Share this topic on FacebookShare this topic on GoogleShare this topic on MySpaceShare this topic on TwitterShare this topic on Yahoo




 

Related Topics

  Subject / Started by Replies Last post
2 Replies
1427 Views
Last post January 18, 2018, 02:03:18 PM
by macwell
1 Replies
1284 Views
Last post January 18, 2018, 07:10:40 PM
by 1974477447
0 Replies
1076 Views
Last post February 02, 2018, 11:54:57 AM
by Pherarim
0 Replies
1168 Views
Last post February 05, 2018, 11:03:11 AM
by Pherarim
0 Replies
53 Views
Last post October 20, 2018, 03:09:54 PM
by BUNGILI




Back to top
Sitemap