gaishuan.top

:::: Bollywood Zone => Regional Movies => Bengali Movies => Topic started by: BUNGILI on October 20, 2018, 02:09:02 PM

Title: Khoka 420 (2013) Bengali Movie - HDTVRip[Mp4 - AAC3(5.1Ch)] - 550 MB
Post by: BUNGILI on October 20, 2018, 02:09:02 PM
      Khoka 420 (2013) Bengali Movie -
HDTVRip[Mp4 - AAC3(5.1Ch)] - 550 MB     


(http://media.giphy.com/media/3KWsvVgIM7tgsb17Th/giphy.gif)
(http://media.giphy.com/media/8cB6BULzuz5vDzcdSx/giphy.gif)
(http://media.giphy.com/media/YV34TfHjWZIm9jhxCk/giphy.gif)
(http://media.giphy.com/media/1mik4vhwTONDzFgY7s/giphy.gif)
Code: [Select]
General
Format                                   : MPEG-4
Format profile                           : Base Media
Codec ID                                 : isom (isom)
File size                                : 550 MiB
Duration                                 : 2 h 41 min

Video
ID                                       : 1
Format                                   : AVC
Format/Info                              : Advanced Video Codec
Format profile                           : [email protected]
Format settings                          : CABAC / 4 Ref Frames
Format settings, CABAC                   : Yes
Format settings, RefFrames               : 4 frames
Codec ID                                 : avc1
Codec ID/Info                            : Advanced Video Coding
Duration                                 : 2 h 41 min
Bit rate                                 : 392 kb/s
Maximum bit rate                         : 2 303 kb/s
Width                                    : 560 pixels
Height                                   : 240 pixels
Display aspect ratio                     : 2.35:1
Frame rate mode                          : Constant
Frame rate                               : 25.000 FPS
Color space                              : YUV
Chroma subsampling                       : 4:2:0
Bit depth                                : 8 bits
Scan type                                : Progressive
Bits/(Pixel*Frame)                       : 0.117
Stream size                              : 454 MiB (83%)

Audio
ID                                       : 2
Format                                   : AAC LC SBR
Commercial name                          : HE-AAC
Format settings                          : Explicit
Codec ID                                 : mp4a-40-2
Duration                                 : 2 h 41 min
Bit rate mode                            : Variable
Bit rate                                 : 79.8 kb/s
Maximum bit rate                         : 88.5 kb/s
Channel(s)                               : 6 channels
Channel layout                           : C L R Ls Rs LFE
Sampling rate                            : 48.0 kHz
Frame rate                               : 23.438 FPS (2048 SPF)
Compression mode                         : Lossy
Stream size                              : 92.4 MiB (17%)



  Thumbnail   
(http://www.keepimg.com/images/Ai6h.jpg)


(http://www.keepimg.com/images/download2f5cb65aed443ead.jpg)

[b][color=green][size=5]openload Download Link[/size][/color][/b]
OR
[b][color=green][size=5]indishare Download Link[/size][/color][/b]
OR
[b][color=green][size=5]bdupload Download Link[/size][/color][/b]
Sitemap